#TITLE:I Turn To You;
#SUBTITLE:;
#ARTIST:Melanie C;
#TITLETRANSLIT:;
#SUBTITLETRANSLIT:;
#ARTISTTRANSLIT:Louie DeVito;
#CREDIT:;
#BANNER:;
#BACKGROUND:;
#LYRICSPATH:;
#CDTITLE:;
#MUSIC:Melanie C - I Turn to You.mp3;
#MUSICLENGTH:102.661;
#OFFSET:-0.185;
#SAMPLESTART:14.411;
#SAMPLELENGTH:12.780;
#SELECTABLE:YES;
#BPMS:0.000=138.000;
#STOPS:80.000=0.400
,81.000=0.400
;
#BGCHANGES:;
#FIRSTBEAT:20.000;

#LASTBEAT:230.000;

#SONGFILENAME:Songs/EXTRA/I Turn To You/I Turn To You.sm;

#HASMUSIC:1;

#HASBANNER:0;


//---------------dance-single - BASIC----------------
#NOTES:
     dance-single:
     BASIC:
     easy:
     4:
     0.103,0.126,0.000,0.000,0.010,74.000,0.000,0.000,0.000,0.000:













0000
0000
0000
0000
,
0000
0000
0000
0000
,
0000
0000
0000
0000
,
0000
0000
0000
0000
,
0000
0000
0000
0000
,
0010
0000
0001
0000
,
1000
0100
0010
0001
,
1000
0100
0010
0001
,
1000
0100
0010
0001
,
1000
0100
0010
0001
,
1000
0000
0100
0000
,
0010
0000
0001
0000
,
1000
0000
0100
0000
,
0010
0000
0001
0000
,
1000
0100
0010
0001
,
1000
0100
0010
0001
,
1000
0100
0010
0001
,
1000
0100
0010
0001
,
1000
0000
0100
0000
,
0010
0000
0000
0000
0000
0000
0000
0000
0001
0000
0000
0000
0000
0000
0000
1000
,
0000
0000
0000
0100
0000
0000
0000
0000
0100
0000
0000
0000
0100
0000
0000
0000
,
1000
0000
0100
0000
,
0010
0000
0001
0000
,
1000
0000
0100
0000
,
0010
0000
0001
0000
,
1000
0100
0010
0001
,
1000
0100
0010
0001
,
1000
0100
0010
0001
,
1000
0100
0010
0001;

//---------------dance-single - Heavy----------------
#NOTES:
     dance-single:
     Heavy:
     hard:
     8:
     0.443,0.532,0.127,0.253,0.200,279.000,13.000,26.000,0.000,0.000:







0000
0000
0000
0000
,
0000
0000
0000
0000
,
0000
0000
0000
0000
,
0000
0000
0000
0000
,
0000
0000
0000
0000
,
1000
1000
1000
1000
,
1000
1000
1000
1000
,
0100
1000
0100
1000
,
1001
0000
0100
0000
0001
0000
0010
0001
,
0000
0000
0100
0000
1000
0000
0010
0100
,
0001
0100
0010
0100
1000
0100
0010
0100
,
0001
0000
1000
0100
0000
0000
0010
0000
,
0010
0000
1000
0000
0001
0000
0100
1000
,
0000
0000
0001
0000
0100
0000
0001
0100
,
2000
0000
0010
0010
0000
0000
0001
0001
,
3000
0001
0001
0010
,
0010
0000
1000
0000
0010
0000
0001
0020
,
0000
0001
0100
1000
,
0100
0001
0100
1030
,
0002
0010
1000
0100
,
0013
0000
0100
0000
0010
0001
0010
0001
,
0010
0001
0010
0011
0100
1000
0100
1000
,
0100
1000
0100
1100
1000
0010
1000
0010
,
1000
0010
1000
1010
0001
0100
0001
0100
,
0001
0000
0100
0000
0001
0000
0101
0000
2000
0000
0000
0100
3000
0000
0000
0000
,
0200
0000
0000
0010
0300
0000
0010
0000
0020
0000
0000
0001
0030
0000
0000
0000
,
0002
0000
0000
0100
0003
0000
0100
0000
2000
0000
0000
0100
3000
0000
0000
0000
,
0200
0000
0000
0010
0300
0000
0010
0000
0020
0000
0000
0001
0030
0000
0000
0000
,
0002
0000
0000
0100
0003
0000
0100
0000
0002
0000
0000
0010
0003
0000
0000
0000
,
0020
0000
0000
0100
0030
0000
0100
0000
0200
0000
0000
1000
0300
0000
0000
0000
,
2000
0000
0000
0010
3000
0000
0010
0000
0002
0000
0000
0010
0003
0000
0000
0000
,
0020
0000
0000
0100
0030
0000
0100
0000
0200
0000
0000
1000
0300
0000
0000
0000
,
2000
0000
0000
0010
3000
0000
0010
0000
1000
0000
0000
1100
0000
0000
0100
0000
,
0100
0000
0010
0000
0001
0000
0100
0000
0001
0000
0000
0101
0000
0000
0100
0000
,
0100
0000
0010
0000
1000
0000
0100
0000
1000
0000
0000
1001
0000
0000
0100
0000
,
0100
0000
1000
0000
0100
0000
0001
0000
0010
0000
0000
0110
0000
0000
0100
0000
,
0100
0000
0001
0000
0100
0000
1000
0000
0010
0000
0000
1010
0000
0000
0000
0000
,
0001
0010
0001
0000
0001
0010
0001
0000
0010
0000
0000
0000
0100
0000
0000
0000
,
1000
0100
1000
0000
1000
0100
1000
0000
0100
0000
0000
0000
1000
0000
0000
0000
,
0010
1000
0010
0000
0010
1000
0010
0000
1000
0000
0000
0000
0100
0000
0000
0000
,
0001
0100
0001
0000
0001
0100
0001
0000
0101
0000
0000
0000
0000
0000
0000
0000
,
0000
0000
0000
0000
,
0000
0000
1001
0000
,
1000
0001
1000
0001
1000
0001
1000
0001
1000
0100
1000
0100
1000
0100
1000
0100
,
0010
0100
0010
0100
0010
0100
0010
0000
0101
0000
0000
0000
0100
0000
0000
0000
,
1000
0000
0010
0100
0001
0100
0010
0100
,
1000
0100
0010
0100
0001
0000
1000
0100
,
0000
0010
0010
1000
,
0001
0000
0100
1000
0000
0000
0001
0000
,
0100
0000
0001
0100
2000
0000
0010
0010
,
0000
0000
0001
0001
3000
0000
0001
0000
,
0001
0010
0010
1000
,
0010
0000
0001
0020
0000
0000
0001
0000
,
0100
1000
0100
0001
,
0100
1030
0002
0010
,
1000
0000
0000
0000
0100
0000
0000
0023
0000
0000
0000
0000
0000
0000
0230
0000
,
0000
2300
3002
0000
,
0000
0000
0003
0000;
